#TITLE:Frantic;
#SUBTITLE:~Airvinex & Magna Trick~;
#ARTIST:AmuseWorld;
#TITLETRANSLIT:;
#SUBTITLETRANSLIT:;
#ARTISTTRANSLIT:;
#CREDIT:Magna Trick & Airvinex;
#BANNER:Frantic-BN.png;
#BACKGROUND:Frantic-BG.png;
#LYRICSPATH:;
#CDTITLE:MT&AIR.png;
#MUSIC:12_Frantic.mp3;
#OFFSET:-0.660;
#SAMPLESTART:36.116;
#SAMPLELENGTH:11.980;
#SELECTABLE:YES;
#BPMS:0.000=145.000;
#STOPS:;
#BGCHANGES:;
// cache tags:
#FIRSTBEAT:0.000;
#LASTBEAT:268.000;
#SONGFILENAME:Songs/Chilean Keyboard Megapack 3/(Airvinex &  Magna Trick) Frantic/Frantic.sm;
#HASMUSIC:1;
#HASBANNER:1;
#MUSICLENGTH:114.134;
// end cache tags

//---------------dance-single - ----------------
#NOTES:
     dance-single:
     :
     Challenge:
     12:
     1.000,0.998,1.000,0.053,1.000,725.000,146.000,6.000,0.000,4.000:
2000
0000
0000
0000
,
3012
0000
0000
0000
0000
0000
0000
0003
,
1100
0000
0000
0110
0000
0000
0011
0000
0000
1001
0000
0000
1010
0001
0100
0010
,
1001
0000
0000
0011
0000
0000
0110
0000
0000
1100
0000
0000
1001
0100
0001
0010
,
1100
0000
0000
0011
0000
0000
0110
0000
0000
1001
0000
0000
1100
0001
0010
0100
,
1001
0000
0000
0101
0000
0000
0110
0000
0000
1010
0000
0000
1001
0010
0100
0001
,
1010
0000
0000
0110
0000
0000
0101
0000
0000
1001
0000
0000
1010
0100
1000
0001
,
0110
0000
0000
1010
0000
0000
1001
0000
0000
0011
0000
0000
1100
0001
0010
0100
,
1001
0000
0000
0110
0000
0000
0101
0000
0000
1001
0000
0000
0110
0001
1000
0010
,
0101
0000
0000
1010
0000
0000
0110
0000
0000
0101
0000
0000
1001
0100
0010
0001
,
2010
0000
0000
0001
0000
0000
0100
0000
0000
0010
0000
0000
0100
0001
0100
0010
,
3102
0000
0000
1100
0000
0000
1013
0000
0000
1001
0000
0000
1100
0010
1000
0100
,
0011
0000
0000
1100
0000
0000
1001
0000
0000
0011
0000
0000
1100
0010
0100
0001
,
1010
0000
0000
0011
0000
0000
1100
0000
0000
0101
0000
0000
0011
0100
0010
1000
,
0101
0000
0000
0110
0000
0000
1010
0000
0000
1001
0000
0000
0110
0001
0100
1000
,
0101
0000
0000
1100
0000
0000
0011
0000
0000
1010
0000
0000
1001
0010
1000
0001
,
0110
0000
0000
1010
0000
0000
1100
0000
0000
0011
0000
0000
0101
0010
1000
0100
,
0011
0000
0000
1010
0000
0000
0101
0000
0000
1100
0000
0000
1010
0001
0010
0100
,
1001
0000
0100
1000
0011
0000
0100
0000
0010
0000
1000
0000
0110
1000
0001
0010
,
1000
0000
0010
0001
1100
0000
0010
0000
0100
0000
0001
0000
1010
0100
1000
0001
,
0100
0000
0001
0010
1100
0000
0010
0000
0001
0000
1000
0000
0011
0100
0001
1000
,
0100
0000
0010
0001
1010
0000
0100
0000
1000
0000
0010
0000
0110
0001
1000
0010
,
0100
0000
0001
1000
0110
0000
0010
0000
0001
0000
0010
0000
0101
1000
0001
0100
,
0010
0000
0010
0100
1001
0000
1000
0000
0100
0000
1000
0000
0101
0010
1000
0010
,
0001
0000
1000
0010
0101
0000
1000
0000
0100
0000
1000
0000
0101
0010
1000
0010
,
0001
0000
1000
0010
0101
0000
0001
0000
1000
0000
0100
0000
1010
0001
0010
1000
,
0010
0000
0001
1000
0110
0000
0100
0000
0001
0000
0100
0000
1010
0100
0001
1000
,
0100
0000
1000
0100
1010
0000
0001
0000
0010
0000
1000
0000
0110
0001
1000
0010
,
0100
0000
0001
0100
1010
0000
1000
0000
0001
0000
0010
0000
1100
0010
0001
1000
,
0100
0000
1000
0010
1100
0000
0001
0000
0100
0000
0010
0000
1001
0100
1000
0001
,
0100
0000
0001
0010
1100
0000
0010
0000
0001
0000
1000
0000
0011
0100
0001
0100
,
0010
0000
1000
0010
1001
0000
0100
0000
0010
0000
0001
0000
0110
1000
0010
0001
,
1000
0000
0010
0100
1001
0000
0100
0000
0010
0000
1000
0000
0110
1000
0001
1000
,
0101
0010
0100
1000
0001
0010
1000
0010
0101
1000
0100
0010
0001
0010
0100
1000
,
0101
1000
0001
0100
0010
1000
0000
0100
0010
0001
0010
1000
0000
1000
0010
0001
,
1000
0010
0000
0010
0100
0001
1000
0100
0000
0100
1000
0001
0010
1000
0000
1000
,
0010
0001
1000
0010
0000
0010
0100
0001
0100
0010
0000
0010
1000
0100
1000
0001
,
0100
0001
0010
0100
0010
0001
1000
0100
0010
0001
0010
0100
1000
0001
0100
0010
,
1000
0100
0010
0001
0010
0100
0000
1000
0010
0100
0001
1000
0000
0100
0010
0001
,
0010
0100
0000
0100
1000
0010
0100
0001
0000
0001
1000
0010
1000
0100
0000
0100
,
1010
0001
0010
1000
0000
1000
0010
0001
1000
0010
0000
0010
0100
0001
1000
0001
,
1010
0001
1000
0001
1000
0001
1000
0001
1000
0001
1000
0001
1000
0001
1000
0001
,
1010
0001
0100
0001
1000
0010
0001
1000
0001
0010
0100
0001
1000
0010
0100
1000
,
0001
0010
0001
1000
0100
0001
1000
0010
0100
1000
0100
0010
1000
0001
1000
0001
,
0010
0100
0001
1000
0010
0100
1000
0001
0010
0001
1000
0100
0001
1000
0010
1000
,
0010
0100
1000
0100
0010
1000
0010
1000
0001
0010
0100
0001
0100
0010
0001
1000
,
0001
0010
0100
0001
1000
0010
0100
1000
0100
0010
0001
0100
0001
0010
0100
0001
,
1000
0010
0100
0001
1000
0010
0100
1000
0001
0010
0001
1000
0100
0001
1000
0010
,
0100
1000
0100
0010
1000
0010
0001
1000
0010
0100
0010
1000
0100
0010
0001
0100
,
0010
0001
0100
0001
1000
0100
1000
0001
0010
1000
0001
0100
1000
0010
0001
0100
,
1001
0000
0110
0000
1000
1000
0000
0010
0010
0000
0100
0100
0000
0001
0001
0000
,
1100
0000
0011
0000
0100
0100
0000
0010
0010
0000
0001
0001
0000
1000
1000
0000
,
0110
0000
1001
0000
0010
0010
0000
0100
0100
0000
0001
0001
0000
1000
1000
0000
,
0101
1000
0010
1000
0001
0000
0000
0000
0001
0010
0100
0010
0001
1000
0010
0001
,
0110
0000
1001
0000
0100
0100
0000
0001
0001
0000
1000
1000
0000
0010
0010
0000
,
1100
0000
0011
0000
1000
1000
0000
0001
0001
0000
0010
0010
0000
0100
0100
0000
,
1001
0000
0110
0000
0001
0001
0000
1000
1000
0000
0010
0010
0000
0100
0100
0000
,
1010
0000
0101
0000
0010
0010
0000
0100
0100
0000
1000
0000
1000
1000
0000
0100
,
0010
0000
1000
0100
0011
0000
1000
0000
0001
0000
0100
0000
1001
0100
0010
0001
,
0100
0000
0001
0010
1100
0000
0001
0000
1000
0000
0010
0000
0101
1000
0100
0010
,
1000
0000
0010
0001
1100
0000
0001
0000
0010
0000
0100
0000
0011
1000
0010
0100
,
1000
0000
0001
0010
0101
0000
1000
0000
0100
0000
0001
0000
1001
0010
0100
0001
,
1000
0000
0010
0100
1001
0000
0001
0000
0010
0000
0001
0000
1010
0100
0010
1000
,
0001
0000
0001
1000
0110
0000
0100
0000
1000
0000
0100
0000
1010
0001
0100
0001
,
0010
0000
0100
0001
1010
0000
0100
0000
1000
0000
0100
0000
1010
0001
0100
0001
,
0010
0000
0100
0001
1010
0000
0010
0000
0100
0000
1000
0000
0101
0010
0001
0100
,
2002
0000
0000
0000
,
3003
0000
0000
0000
;

//---------------dance-single - ----------------
#NOTES:
     dance-single:
     :
     Edit:
     14:
     1.000,1.000,1.000,0.088,1.000,985.000,241.000,10.000,0.000,15.000:
1200
0000
0000
0000
,
1321
0000
0000
0000
0000
0000
0000
0030
,
1100
0010
0100
1001
0010
0100
0011
1000
0001
0110
1000
0010
0101
0010
1000
0001
,
0110
1000
0100
0011
0100
0010
1001
0010
0001
1100
0001
1000
0110
1000
0010
0001
,
1100
0010
0100
0011
1000
0100
1001
0010
0001
0110
1000
0001
1100
0010
0001
1000
,
0110
0001
0100
1010
0100
0010
1001
0010
1000
0101
1000
0001
0110
0001
1000
0010
,
0101
0010
0100
1001
0100
0001
1010
0001
1000
0110
1000
0010
0101
1000
0100
0010
,
1001
0100
1000
0101
0010
1000
0110
0001
1000
0011
0100
0010
1100
0010
0001
1000
,
0110
0001
0010
1001
0100
0001
1010
0100
1000
0110
0001
0100
1001
0010
0100
0001
,
1010
0100
0010
0101
1000
0100
1001
0100
0001
1010
0001
1000
0110
1000
0001
0010
,
0201
1000
0001
1010
0001
0010
1001
0010
1000
0011
1000
0001
1010
0001
1000
0001
,
1320
0001
0100
1001
0100
1000
0131
1000
0001
0110
1000
0010
1100
0001
0100
1000
,
0011
0100
0010
1100
0001
1000
0110
1000
0100
0011
1000
0010
1100
0001
1000
0010
,
0101
1000
0100
0011
0100
0001
1100
0010
0001
1010
0100
1000
0011
1000
0001
0100
,
1010
0100
0010
1001
0010
1000
0101
1000
0001
0110
0001
0100
1001
0010
1000
0100
,
1010
0001
0010
1100
0010
0100
0011
1000
0010
0101
1000
0001
0110
0001
0100
0010
,
1001
0100
0010
0101
1000
0001
1100
0010
0100
0011
1000
0100
1010
0001
0100
1000
,
0011
0100
1000
0101
0010
0100
1010
0001
0010
1100
0001
1000
0101
0010
0001
1000
,
0110
0000
1000
0100
0011
0100
1000
0010
0001
1000
0100
0010
1001
0100
0010
0001
,
0100
1000
0001
0010
1100
0010
0001
0100
1000
0001
0010
1000
0101
1000
0100
0010
,
1000
0100
0010
0001
1100
0010
0001
0100
0010
1000
0100
1000
0011
1000
0010
0100
,
1000
0010
0001
0010
0101
0010
1000
0001
0100
1000
0001
0100
1001
0010
0100
0001
,
1000
0100
0010
0100
1001
0010
0001
0100
0010
1000
0001
0100
1010
0100
0010
1000
,
0001
0100
0001
1000
0110
0001
0100
0010
1000
0001
0010
0100
1010
0001
0100
0001
,
0010
1000
0100
0001
1010
0001
0100
0010
1000
0001
0010
0100
1010
0001
0100
0001
,
0010
1000
0100
0001
1010
0100
0010
0001
0100
0010
1000
0010
0101
0010
0001
0100
,
0001
1000
0010
0100
1001
0010
1000
0100
0010
0001
1000
0010
0101
1000
0010
0100
,
1000
0001
0100
1000
0101
1000
0010
0100
0001
1000
0100
0010
1001
0010
0100
0001
,
1000
0100
0010
1000
0101
0010
0100
1000
0010
0100
0001
0010
1100
0001
0010
0100
,
1000
0001
0100
0001
1100
0010
0001
0100
1000
0010
0001
1000
0110
1000
0100
0010
,
1000
0100
0010
0001
1100
0010
0001
0100
0010
1000
0010
0100
0011
1000
0010
1000
,
0001
0010
0100
0001
0110
0001
1000
0010
0001
0100
0010
1000
0011
0100
0001
0010
,
0100
1000
0001
1000
0110
0001
1000
0010
0001
1000
0100
0010
1001
0100
0010
0100
,
1010
0100
0001
1000
0100
0010
0001
0010
0100
1000
0001
0100
1010
0100
0001
1000
0010
0100
0001
1000
0100
0010
0001
0100
,
1010
0100
0011
1000
0011
0100
1001
0100
0001
0010
1001
0100
0000
0100
1001
0010
,
0100
0001
0000
0001
1000
0010
0100
1000
0000
1000
0100
0010
0001
0100
0000
0100
,
1001
0010
1100
0001
1100
0001
1010
0001
1000
0001
1010
0001
0100
1000
0101
0010
,
1000
0010
0001
1000
0001
0010
0100
1000
0001
0010
0001
1000
0100
0010
1000
0001
,
0110
1000
0101
0010
0101
1000
0011
0100
0001
1000
0011
0100
0000
1000
0101
0010
,
0001
1000
0000
1000
0100
0001
1000
0010
0000
0010
0100
0001
0100
1000
0000
0100
,
2001
0010
0001
0100
0000
0100
0001
0010
0100
0001
0000
0001
0100
0010
0001
0100
,
3012
0100
0010
0100
0010
0100
0010
0100
0010
0100
0010
0100
0013
0100
0010
0100
0010
0100
0010
0100
0010
0100
0000
0000
,
0101
0010
1000
0010
1100
0001
0010
0100
0010
0001
1000
0010
1100
0001
1000
0100
,
0010
0001
0010
0100
1001
0010
0100
0001
1000
0100
1000
0001
1100
0010
0100
0010
,
0001
1000
0010
0100
0011
1000
0100
0010
0001
0010
0100
1000
0011
0100
0001
0100
,
0001
1000
0100
1000
0011
0100
0001
0100
0010
0001
1000
0010
1100
0001
0010
0100
,
0010
0001
1000
0010
1100
0001
1000
0100
1000
0001
0010
0100
1010
0001
1000
0010
,
0100
0001
1000
0010
1100
0001
1000
0100
0010
0001
0010
0100
1001
0010
0100
0001
,
1000
0100
1000
0001
0110
0001
0010
0100
0001
1000
0001
0100
1010
0001
0010
1000
,
0001
0010
1000
0010
0101
1000
0100
1000
0001
0100
0010
1000
0110
0001
0010
1000
,
0110
0000
1001
0000
0110
0110
0000
1001
1001
0000
1010
1010
0000
0011
0011
0000
,
1100
0000
0011
0000
1100
1100
0000
0011
0011
0000
1010
1010
0000
0101
0101
0000
,
1001
0000
0110
0000
1001
1001
0000
1010
1010
0000
0110
0110
0000
0101
0101
0000
,
2010
0100
0001
0100
0010
0000
0000
0000
0010
0001
0100
0001
0010
0100
0001
0010
,
3102
0000
0110
0000
1100
1100
0000
0110
0113
0000
1100
1100
0000
0011
0011
0000
,
1100
0000
0011
0000
0110
0110
0000
0011
0011
0000
1001
1001
0000
1010
1010
0000
,
0110
0000
1001
0000
1010
1010
0000
0110
0110
0000
0101
0101
0000
1001
1001
0000
,
0101
0000
1010
0000
0011
0011
0000
1100
1100
0000
0110
0000
0101
0101
0000
1010
,
0101
0010
0100
1000
0011
1000
0100
0001
0010
0100
1000
0001
0110
1000
0001
0010
,
1000
0100
0010
0001
1100
0001
0010
1000
0100
0010
0001
0100
1010
0100
1000
0001
,
0100
1000
0001
0010
1100
0001
0010
0100
0001
0010
1000
0100
0011
0100
0001
1000
,
0100
0001
0010
0001
1010
0001
0100
0010
1000
0100
0010
1000
0110
0001
1000
0010
,
0100
1000
0001
1000
0110
0001
0010
0100
0001
1000
0010
0100
0011
1000
0001
0100
,
0010
1000
0010
0100
1001
0010
0100
0001
0100
0010
1000
0100
1001
0010
0100
0010
,
0001
0100
1000
0010
0101
1000
0010
0001
0100
0010
1000
0010
0101
1000
0010
0100
,
0001
0010
1000
0010
0101
1000
0001
0010
1000
0001
0100
0001
1010
0001
0010
1000
,
0220
0000
0000
0000
,
0330
0000
0000
0000
;
